Help get this topic noticed by sharing it on Twitter, Facebook, or email.

Does Nero 15 support cue files?

I have one flac file and a cue file with information about audio tracks. Can I burn an audio CD in an Nero-15 product (Nero Burning ROM?) without cutting first the flac file with help of third party program? Tried several options, but failed yet.
Thank you!
1 person has
this question
+1
Reply
  • Hello Andrey-

    Seems you have two questions-

    When burning an audio CD, the format of the original audio files (in your case .flac) shouldn't make any difference since they're converted to LPCM. Note that, if the files are copy protected, you won't be able to burn them in Nero.

    You can also use Cue files. Although this thread discusses a particular problem with Cue files and is fairly long, it might be useful to you-

    http://forum.nero.com/nero_eng/topics...
  • (some HTML allowed)
    How does this make you feel?
    Add Image
    I'm

    e.g. happy, confident, thankful, excited indifferent, undecided, unconcerned kidding, amused, unsure, silly sad, anxious, confused, frustrated

  • Andrey,

    In Nero Burning ROM, choose your CUE file after selecting "Burn image ..." on the Recorder menu:



    Similar capability exists in Nero Express.
  • (some HTML allowed)
    How does this make you feel?
    Add Image
    I'm

    e.g. happy, confident, thankful, excited indifferent, undecided, unconcerned kidding, amused, unsure, silly sad, anxious, confused, frustrated

  • Dear Wither 1,
    Dear Omega Tester,

    Thank you for your replies. In fact my question should be originally registered as a problem.
    I have a CD of 18 tracks compiled into one flac file and a cue file. The idea was to burn an audio CD with 18 tracks.
    I tried to open cue file in Nero Burning ROM, but it gave me two subsequent error messages:
    First:

    Then:

    So I could not make a proper CD with this flac/cue combination with Nero Burning ROM. On the other hand I had no problem to burn a CD when each audio track has separate flac file.
    I assume that not possible to read the cue file is a problem of Nero, because what I finally have done was to cut the single flac file into 18 with a freeware CUE Splitter and then burn the 18 flac files on a CD with Nero. It works. Pity I could not do it all in Nero.
  • (some HTML allowed)
    How does this make you feel?
    Add Image
    I'm

    e.g. happy, confident, thankful, excited indifferent, undecided, unconcerned kidding, amused, unsure, silly sad, anxious, confused, frustrated

  • REM GENRE Classical
    REM DATE 2006
    REM DISCID FA0DB312
    REM COMMENT Made in Russia
    CATALOG 4607095434640
    PERFORMER "Московская Хоровая Академия, Виктор Попов"
    TITLE "Литургия Иоанна Златоуста"
    FILE "Московская Хоровая Академия, Виктор Попов - Литургия Иоанна Златоуста.flac" WAVE
    TRACK 01 AUDIO
    TITLE "Великая Ектения"
    PERFORMER "Московская Хоровая Академия, Виктор Попов"
    FLAGS DCP
    INDEX 01 00:00:00
    TRACK 02 AUDIO
    TITLE "Благослови, душе моя, Господи"
    PERFORMER "Московская Хоровая Академия, Виктор Попов"
    FLAGS DCP
    INDEX 01 05:30:52
    TRACK 03 AUDIO
    TITLE "Единородный"
    PERFORMER "Московская Хоровая Академия, Виктор Попов"
    FLAGS DCP
    INDEX 01 08:58:72
    TRACK 04 AUDIO
    TITLE "Во царствие твоем"
    PERFORMER "Московская Хоровая Академия, Виктор Попов"
    FLAGS DCP
    INDEX 01 10:49:37
    TRACK 05 AUDIO
    TITLE "Прийдите, поклонимся"
    PERFORMER "Московская Хоровая Академия, Виктор Попов"
    FLAGS DCP
    INDEX 01 15:39:02
    TRACK 06 AUDIO
    TITLE "Господи, спаси благочествыя и Святый Боже"
    PERFORMER "Московская Хоровая Академия, Виктор Попов"
    FLAGS DCP
    INDEX 01 17:07:72
    TRACK 07 AUDIO
    TITLE "Иже Херувимы"
    PERFORMER "Московская Хоровая Академия, Виктор Попов"
    FLAGS DCP
    INDEX 01 19:30:35
    TRACK 08 AUDIO
    TITLE "Верую"
    PERFORMER "Московская Хоровая Академия, Виктор Попов"
    FLAGS DCP
    INDEX 01 23:34:45
    TRACK 09 AUDIO
    TITLE "Милость мира"
    PERFORMER "Московская Хоровая Академия, Виктор Попов"
    FLAGS DCP
    INDEX 01 28:05:03
    TRACK 10 AUDIO
    TITLE "Тебе поем"
    PERFORMER "Московская Хоровая Академия, Виктор Попов"
    FLAGS DCP
    INDEX 01 31:29:19
    TRACK 11 AUDIO
    TITLE "Достойно есть"
    PERFORMER "Московская Хоровая Академия, Виктор Попов"
    FLAGS DCP
    INDEX 01 34:42:49
    TRACK 12 AUDIO
    TITLE "Отче наш"
    PERFORMER "Московская Хоровая Академия, Виктор Попов"
    FLAGS DCP
    INDEX 01 37:16:35
    TRACK 13 AUDIO
    TITLE "Хвалите Господе"
    PERFORMER "Московская Хоровая Академия, Виктор Попов"
    FLAGS DCP
    INDEX 01 41:10:03
    TRACK 14 AUDIO
    TITLE "Благословен Грядый"
    PERFORMER "Московская Хоровая Академия, Виктор Попов"
    FLAGS DCP
    INDEX 01 42:51:70
    TRACK 15 AUDIO
    TITLE "Да исполнятся усте наша"
    PERFORMER "Московская Хоровая Академия, Виктор Попов"
    FLAGS DCP
    INDEX 01 43:57:60
    TRACK 16 AUDIO
    TITLE "Буди имя Господне"
    PERFORMER "Московская Хоровая Академия, Виктор Попов"
    FLAGS DCP
    INDEX 01 47:27:10
    TRACK 17 AUDIO
    TITLE "Слава Отцу"
    PERFORMER "Московская Хоровая Академия, Виктор Попов"
    FLAGS DCP
    INDEX 01 48:21:70
    TRACK 18 AUDIO
    TITLE "Гимн Пречистой Деве"
    PERFORMER "Московская Хоровая Академия, Виктор Попов"
    FLAGS DCP
    INDEX 01 50:51:18
  • (some HTML allowed)
    How does this make you feel?
    Add Image
    I'm

    e.g. happy, confident, thankful, excited indifferent, undecided, unconcerned kidding, amused, unsure, silly sad, anxious, confused, frustrated

  • Andrey,

    I used your CUE file text after changing the filename to test.flac. Here's the result playing in Nero MediaHome:



    The tracks appear to be correct (ignoring the last duration and the general language issue!).
  • (some HTML allowed)
    How does this make you feel?
    Add Image
    I'm

    e.g. happy, confident, thankful, excited indifferent, undecided, unconcerned kidding, amused, unsure, silly sad, anxious, confused, frustrated

  • Dear All,
    Thank you for your efforts, I give up. I have a solution – using CUE Splitter + Nero Burning ROM., not fully satisfactory, but workable.
    • view 1 more comment
    • Hi Omega Tester
      1) First of all thank you for all your efforts;
      2) I could not reproduce that merely eliminating the Cyrillic characters in the FLAC filename was enough to enable CUE file usage, maybe I was not too persistent;
      3) “The CD I made appears to have the correct information stored on it. Are you saying it is not correct?” – I can say nothing – I could not reproduce the case, it cue file would not work with me even if I rename flac file to “copy”;
      4) I stop investigating this issue, because I have found another solution of which I wrote before;
      5) And thanks again.
    • Andrey,

      I suppose you didn't download and burn the NRG image that I made. I'll leave it in the cloud for now. If you try it, please let me know if it worked; if not, thanks for letting me know that you're done!

      Here's an NRG file created from my CD [~500 MB].
  • (some HTML allowed)
    How does this make you feel?
    Add Image
    I'm

    e.g. happy, confident, thankful, excited indifferent, undecided, unconcerned kidding, amused, unsure, silly sad, anxious, confused, frustrated